#TITLE:Sepia;
#SUBTITLE:~Paradox re-edit~;
#ARTIST:Shiki/-45;
#TITLETRANSLIT:;
#SUBTITLETRANSLIT:;
#ARTISTTRANSLIT:;
#CREDIT:;
#BANNER:Sepia-bn.png;
#BACKGROUND:Sepia-bg.png;
#LYRICSPATH:;
#CDTITLE:Prdx.png;
#MUSIC:shiki-sepia.mp3;
#OFFSET:-0.550;
#SAMPLESTART:50.000;
#SAMPLELENGTH:12.000;
#SELECTABLE:YES;
#BPMS:0.000=142.000,122.000=142.000;
#STOPS:;
#BGCHANGES:;
// cache tags:
#FIRSTBEAT:0.000;
#LASTBEAT:295.000;
#SONGFILENAME:Songs/Chilean Keyboard Megapack 3/(Paradox) Sepia/sepia.sm;
#HASMUSIC:1;
#HASBANNER:1;
#MUSICLENGTH:135.061;
// end cache tags

//---------------dance-single - ----------------
#NOTES:
     dance-single:
     :
     Challenge:
     11:
     0.713,0.983,0.422,0.259,0.896,582.000,57.000,35.000,0.000,0.000:
1000
0100
0002
0000
0000
0000
0000
0000
0000
0000
0003
0000
0000
0000
0100
0000
,
0000
2002
0000
0000
3003
0000
1000
0000
,
0010
1000
0000
0020
0000
0000
0000
0030
,
0000
2200
0000
3300
0000
2002
0000
3003
,
1000
0100
0001
0000
0000
0000
0000
0000
0000
0000
0000
0000
0000
0000
0100
0000
,
0000
2002
0000
0000
3003
0000
0010
0000
,
0010
2002
0000
0000
0000
0000
0000
0000
,
0000
0000
0000
0000
,
0000
0000
3003
0000
,
0001
1000
0002
0000
0000
0000
0000
0000
0000
0000
0000
0000
0003
0000
1100
0000
,
0000
0110
0000
0000
0000
0000
0101
0000
,
1010
1001
0000
2002
0000
0000
0000
0000
,
0000
0000
0000
3003
,
1000
0100
2000
0000
0000
0000
0000
0000
0000
0000
3000
0000
0000
0000
1100
0000
,
0000
1010
0000
0000
0000
0000
1001
0000
,
0011
1100
0000
0220
0000
0000
0000
0000
,
0000
0000
0330
0000
,
1000
0100
0001
0000
0000
0000
0000
0000
0000
0000
0000
0000
0000
0000
0011
0000
,
0000
0000
2200
0000
0000
0000
0000
0000
0000
3300
0000
0000
0110
0000
0000
0000
,
1100
0110
0000
2020
0000
0000
0000
0000
,
0000
0000
0000
0000
0000
0000
0000
3030
,
1000
0001
1000
0000
0000
0000
0000
0000
0000
0000
0000
0000
0000
0000
0110
0000
,
0000
2002
0000
0000
3003
0000
1001
0000
,
0110
2001
0000
0001
0000
0001
0000
0001
,
0000
0001
0000
0001
0000
0001
0000
3001
,
0100
0010
0100
0000
0000
0000
0000
0000
0000
0000
0000
0000
0000
0000
0001
0000
,
0000
0100
0000
0000
0000
0000
0100
0000
,
0010
0100
0000
1000
0000
0000
0000
0000
,
0000
0200
0000
0000
0000
0000
0300
0000
,
0001
0100
0001
0000
0000
0000
0000
0000
0000
0000
0000
0000
0000
0000
0001
0000
,
0000
1000
0000
0000
0000
0000
1000
0000
,
0100
0010
0000
0002
0000
0000
0000
0000
,
0000
0000
0000
0003
,
0000
0000
0100
0010
0100
0000
0001
1000
0001
0000
1000
0100
1000
0000
0010
0001
,
0010
0000
0001
1000
0001
0000
0010
1000
0010
0000
0100
0001
0100
0000
0010
0100
,
0010
0000
1000
0001
0100
0000
0001
1000
0010
0000
0001
1000
0100
0000
0001
1000
,
0001
0000
0100
0010
0100
0000
0010
0100
0001
0000
1000
0100
1000
0000
0001
0100
,
0001
0000
0100
0010
0100
0010
0100
0010
0100
0010
0100
0010
0100
0010
0100
0010
,
0100
0010
0100
0010
0100
0010
0100
0010
0100
0010
0100
0010
0100
0010
0100
0010
,
0100
0010
0100
0010
0100
0010
0100
0010
0100
0010
0100
0010
0100
0010
0100
0010
,
0100
0010
1001
0010
1100
0000
0000
0000
1001
0000
0000
0000
0110
0000
0000
0000
,
1001
0000
0010
0000
0001
1000
0001
1000
0010
1000
0001
0100
0001
1000
0010
1000
,
0001
0100
0001
0010
0001
1000
0010
1000
0001
0100
0001
0010
0100
1000
0100
0010
,
0001
1000
0001
0100
0001
1000
0010
1000
0100
0010
0001
1000
0001
0100
0001
1000
,
0010
1000
0100
1000
0001
0100
0001
0010
0001
1000
0001
0100
0001
1000
0010
1000
,
0001
0100
0001
1000
0010
1000
0100
0010
0001
0010
0100
1000
0001
0100
0001
1000
,
0010
1000
0100
1000
0001
0100
0001
0010
0001
1000
0010
1000
0100
1000
0001
0100
,
0001
1000
0010
1000
0001
0100
0001
0010
0001
1000
0010
1000
0001
0010
0100
1000
,
0100
0010
0001
1000
0001
0100
0001
1000
0010
1000
0001
0010
0100
1000
0100
1000
,
0100
1000
1001
0100
0001
1000
0010
1000
0100
0010
0001
0010
0100
1000
0011
0100
,
0001
1000
0010
1000
0001
0100
0001
0010
0100
1000
0101
1000
0001
0100
0001
1000
,
0010
1000
0100
0010
0001
1000
0011
0100
0001
1000
0010
1000
0100
0010
0001
0010
,
0100
1000
0101
0010
0100
1000
0001
0100
0001
1000
0010
1000
0001
0100
0011
1000
,
0010
1000
0001
0100
0001
1000
0010
1000
0001
0100
1001
0010
0100
1000
0100
1000
,
0001
0100
0001
0010
0100
1000
0101
0010
0001
0010
0001
1000
0010
1000
0001
0100
,
0001
0010
0101
1000
0010
1000
0001
0100
0001
1000
0010
1000
0001
0010
0101
1000
,
0100
0000
0000
0010
0000
0000
0001
0000
0000
0010
0000
0000
0001
0000
0000
1000
0000
0000
0010
0000
0000
1000
0000
0000
0001
0000
0000
0100
0000
0000
0011
0000
0000
1000
0000
0000
0001
0000
0000
0010
0000
0000
0100
0000
1000
0000
0010
0000
,
0100
0001
0010
0100
0000
0000
0000
0000
0000
0000
0000
0000
0000
0000
0000
0000
0000
0000
0000
0000
0000
0011
0000
0000
,
0000
2200
0000
0000
3300
0000
0011
0000
,
0110
1001
0000
2002
0000
0000
0000
0000
,
0000
0000
0000
0000
0000
3003
0000
0000
,
1000
0001
0100
0000
0000
0000
0000
0000
0000
0000
0000
0000
0000
0000
0011
0000
,
0000
0110
0000
0000
0000
0000
0110
0000
,
1100
0011
0000
2200
0000
0000
0000
0000
,
0000
0000
0000
3300
,
0000
0000
1000
0001
1000
0001
0100
0001
1000
0010
1000
0100
0010
0001
0010
0100
,
1000
0001
0100
0001
1000
0010
1000
0001
0010
0100
1000
0001
1000
0001
0100
0001
,
1000
0010
1000
0100
0010
0001
1000
0001
0100
0001
1000
0010
1000
0100
0010
0001
,
0010
0100
1000
0001
0100
0001
1000
0010
1000
0100
1000
0001
0100
0001
1000
0010
,
1000
0100
1000
0010
1000
0001
0100
0001
1000
0001
0100
0100
0001
1000
0010
1000
,
0001
0010
0100
1000
0100
1000
0100
1000
0001
0100
0001
1000
0001
0100
0001
1000
,
0001
0010
0100
1000
0100
0010
0001
1000
0001
0100
0001
1000
0010
1000
0100
1000
,
0001
0100
0001
1000
0010
1000
0100
0010
0001
0010
0100
1000
0001
0100
0001
1000
,
0000
2002
0000
0000
0000
0000
3003
0000
;
